DivX/Xvid
Niezniszczalni 3 - The Expendables 3 (2014) [DVDScr] [XviD-MAX] [ENG]


Data dodania:
2019-10-08 21:11:51
Rozmiar: 1.62 GB
Seedów: 327
Peerów: 221

Torrent Magnet
Tytuł: Expendables 3
Polski: Niezniszczalni 3
=====================

Premiera: 15-08-2014 (Świat)
Produkcja: USA
Gatunek: Akcja
ReĹźyseria: Patrick Hughes
Scenariusz: Sylvester Stallone, Katrin Benedikt, Creighton Rothenberger

OPIS:
=====================
Conrad Stonebanks (Mel Gibson) to jeden z największych na świecie handlarzy bronią. Zanim przeszedł na ciemną stronę mocy, był jednym z tych, którzy powołali do Ĺźycia Niezniszczalnych - kierującą się własnym kodeksem honorowym grupę najlepszych na świecie Ĺźołnierzy do wynajęcia. Czy druĹźynie Rossa uda się przechytrzyć dawnego kompana znającego ich na wylot? W realizacji misji wesprze ich kolejna generacja najemników. Nikt nie jest przecieĹź wiecznie młody. 

OBSADA:
=====================
Sylvester Stallone ... Barney Ross
Jason Statham ... Lee Christmas
Jet Li ... Yin Yang
Antonio Banderas ... Rapido
Wesley Snipes ... Surgeon
Dolph Lundgren ... Gunnar Jensen
Mel Gibson ... Conrad Stonebanks
Harrison Ford ... Max Drummer

INFORMACJE O PLIKU:
=====================
Format : AVI
Format/Info : Audio Video Interleave
File size : 1.62 GiB
Duration : 2h 6mn
Overall bit rate : 1 832 Kbps
Writing application : VirtualDubMod 1.5.10.2 (build 2542/release)
Writing library : VirtualDubMod build 2542/release
Original source form : MAX TORRENTZ
Copyright : SIGISMUNT

Video
ID : 0
Format : MPEG-4 Visual
Format profile : Advanced [email protected]
Format settings, BVOP : 2
Format settings, QPel : Yes
Format settings, GMC : No warppoints
Format settings, Matrix : Default (H.263)
Muxing mode : Packed bitstream
Codec ID : XVID
Codec ID/Hint : XviD
Duration : 2h 6mn
Bit rate : 1 568 Kbps
Width : 720 pixels
Height : 304 pixels
Display aspect ratio : 2.35:1
Frame rate : 23.976 fps
Color space : YUV
Chroma subsampling : 4:2:0
Bit depth : 8 bits
Scan type : Progressive
Compression mode : Lossy
Bits/(Pixel*Frame) : 0.299
Stream size : 1.38 GiB (86%)
Writing library : XviD 64

Audio
ID : 1
Format : AC-3
Format/Info : Audio Coding 3
Mode extension : CM (complete main)
Format settings, Endianness : Big
Codec ID : 2000
Duration : 2h 6mn
Bit rate mode : Constant
Bit rate : 256 Kbps
Channel(s) : 2 channels
Channel positions : Front: L R
Sampling rate : 44.1 KHz
Bit depth : 16 bits
Compression mode : Lossy
Stream size : 231 MiB (14%)
Alignment : Aligned on interleaves
Interleave, duration : 70 ms (1.67 video frames)
Interleave, preload duration : 209 ms
Title : audio

SCREENY:
=====================
http://www.webmasteruj.pl/niezniszczalni-3-expendables-3-2014-vt43871.htm

TRAILER:
=====================
https://www.youtube.com/watch?v=sTte6BQndTQ